<?xml version="1.0" standalone="no"?>
<!DOCTYPE svg PUBLIC "-//W3C//DTD SVG 1.1//EN" "http://www.w3.org/Graphics/SVG/1.1/DTD/svg11.dtd" >
<svg>
<metadata>
Created by FontForge 20090914 at Thu Jan 15 12:55:03 2015
 By www-data
Typeface &#194;&#169; High-Logic. 1999, 2002. All Rights Reserved
</metadata>
<defs>
<font id="mCode15" horiz-adv-x="618" >
  <font-face 
    font-family="mCode15"
    font-weight="400"
    font-stretch="normal"
    units-per-em="2048"
    panose-1="5 1 1 1 1 1 1 1 1 1"
    ascent="1638"
    descent="-410"
    x-height="881"
    cap-height="1796"
    bbox="-2.07462 -419.559 2701 1821"
    underline-thickness="102"
    underline-position="-103"
    unicode-range="U+0008-U+222B"
  />
<missing-glyph horiz-adv-x="1658" 
d="M256 0v1280h1024v-1280h-1024zM288 32h960v1216h-960v-1216z" />
    <glyph glyph-name=".notdef" horiz-adv-x="1658" 
d="M256 0v1280h1024v-1280h-1024zM288 32h960v1216h-960v-1216z" />
    <glyph glyph-name=".null" horiz-adv-x="0" 
 />
    <glyph glyph-name=".null" horiz-adv-x="0" 
 />
    <glyph glyph-name=".null" horiz-adv-x="0" 
 />
    <glyph glyph-name="nonmarkingreturn" unicode="&#x9;" horiz-adv-x="1024" 
 />
    <glyph glyph-name="nonmarkingreturn" unicode="&#xd;" horiz-adv-x="1024" 
 />
    <glyph glyph-name="space" unicode=" " horiz-adv-x="1024" 
 />
    <glyph glyph-name="exclam" unicode="!" 
 />
    <glyph glyph-name="quotedbl" unicode="&#x22;" 
 />
    <glyph glyph-name="numbersign" unicode="#" 
 />
    <glyph glyph-name="dollar" unicode="$" 
 />
    <glyph glyph-name="percent" unicode="%" 
 />
    <glyph glyph-name="ampersand" unicode="&#x26;" 
 />
    <glyph glyph-name="quotesingle" unicode="'" 
 />
    <glyph glyph-name="parenleft" unicode="(" 
 />
    <glyph glyph-name="parenright" unicode=")" 
 />
    <glyph glyph-name="asterisk" unicode="*" 
 />
    <glyph glyph-name="plus" unicode="+" 
 />
    <glyph glyph-name="comma" unicode="," 
 />
    <glyph glyph-name="hyphen" unicode="-" 
 />
    <glyph glyph-name="period" unicode="." 
 />
    <glyph glyph-name="slash" unicode="/" 
 />
    <glyph glyph-name="zero" unicode="0" horiz-adv-x="2996" 
d="M393 1599l-16.999 -48.999l-8 -66v-1590c13.333 -53.333 29.666 -97.333 48.999 -132c9.33301 -6 15 -11.667 17 -17l15 -7c53.333 -50.667 105.333 -86.334 156 -107.001l66 -8l58 -17h49h58h49h41h49h32h148h89h34h33h32h34h139h66h57c185.333 -6 333 54.333 443 181
l32 107v49v24v25v163v115v90v41v25v32v26v164v32v32v26v32v148v33v90v24v25v148v24v254c-14.667 31.333 -23 59 -25 83c-27.333 26 -46 50.333 -56 73l-124 83l-131 32h-139h-25h-98h-33h-25h-164h-33h-23h-148h-107h-34h-139h-23h-99c-126 -34 -224.333 -96.667 -295 -188z
M1385 1262c-27.333 -60 -51.999 -106.333 -73.999 -139l-67 -116l-139 -245l-32 -50l-8 -23l-17 -26l-7 -15l-58 -91v33v148v32v32v34v90v25v24v26v23v26v23v26v64v34v148c-2 62 6 116.667 24 164c47.333 52 102 84.667 164 98c319.333 6 390.666 -109 213.999 -345z
M1499 753.001l0.000976562 -737l-9 -90c-60.667 -104 -147.667 -148 -261 -132c-120 -4.66699 -196.667 42.333 -230 141l115 188l25 40l24 49l17 34l49 82l15 32l50 90l17 25l16 32l16 34l74 107c27.333 62 51.666 111 72.999 147z" />
    <glyph glyph-name="one" unicode="1" horiz-adv-x="2996" 
d="M1419 1793l-33.001 -6.99902l-32 -8l-32 -9c-32.667 -14.667 -62.667 -22.334 -90 -23.001c-29.333 -16 -58.666 -27 -87.999 -33l-24 -8l-33 -9l-65 -15c-47.333 -24.667 -93 -38 -137 -40v-244h251v-1790h137h90h32h137h25h97v24v40v26v32v24v162v56v163v64v65v64v66
v161v26v23v251v56v49v58v47v41v49v32v146v90v32v32v33v32v137v25v97h-24h-32h-146z" />
    <glyph glyph-name="two" unicode="2" horiz-adv-x="2996" 
d="M348 902c11.333 -6.66699 18.3359 -13.332 21.0029 -19.999l8 -29l20 -10l9 -18l88 -97l47 -39l10 -18l21 -11l115 -106c22.667 -12.667 41.667 -25.667 57 -39l49 -29l39 -39c48.667 -23.333 87 -49.333 115 -78l39 -18l29 -29l39 -20l29 -29
c39.333 -20.667 68.666 -43.334 87.999 -68.001l39 -18l39 -29l39 -21l18 -28l29 -10l29 -19l78 -58l29 -20l20 -19c104 -66 184 -124 240 -174h-57h-68h-58h-67h-58h-68h-59h-164h-58h-49h-57h-39h-175h-106h-39h-37h-39h-39h-164h-29h-117v-203h300h28h195h68h57h68h58h67
h58h68h59h164h58h49h57h39h175h106h39h37h39h39h164h29h117v29v174l-19 10l-30 19c-48.667 42.667 -90.334 74.667 -125 96l-48 39l-49 29l-49 39l-47 29l-39 39l-49 20l-19 19l-19 18c-44 24 -76.667 46.667 -98 68l-37 20l-39 29c-38.667 30.667 -68 56.667 -88 78l-29 18
l-29 21c-36.667 18 -68.667 37 -96 57l-29 29l-29 10l-20 29l-29 10l-18 19c-42 24.667 -74.667 47 -98 67l-9 19l-20 10c-36 19.333 -65 42 -87 68c-34.667 16.667 -60.334 36 -77.001 58c-62.667 145.333 -85.334 287.333 -68.001 426
c-27.333 211.333 56.667 330.333 252 357c353.333 83.333 617.333 -9.66699 792 -279h300c-166 383.333 -530 557 -1092 521c-702 -80 -979.667 -379.667 -833 -899z" />
    <glyph glyph-name="three" unicode="3" horiz-adv-x="2996" 
d="M237 1505l34.001 -0.00390625h34h145h66h60c6.66699 28 18 50.667 34 68l17 8l59 16h34h35h25h34h152c240.667 28 433 -34 577 -186c52 -144 69 -282.333 51 -415c24.667 -210 -43 -362.667 -203 -458h-25l-51 -25c-64 -16 -118 -24.667 -162 -26h-34h-145h-92h-34h-145
h-25h-102v-196l51 -17l42 -23l43 -17l17 -9c42 -17.333 76 -34.333 102 -51l43 -17l34 -17l42 -17l33 -9l110 -59h26l34 -17l42 -17l94 -51l17 -9c54.667 -18 96.667 -35 126 -51l60 -34c46 -11.333 85.667 -28.333 119 -51h-60h-25h-26h-262h-60h-51h-59h-51h-43h-49h-34
h-154h-93h-34h-34h-34h-34h-143h-26h-102v-228h26h34h144h67h59h68h171h25h26h262h59h51h60h51h43h49h34h153h94h34h34h34h34h143h26h102h145v60v25v26c0.666992 52 -2.33301 96.667 -9 134l-34 9l-94 42l-25 17l-34 9c-42 16.667 -76 33.667 -102 51
c-38 10 -68.667 21.333 -92 34l-34 17l-43 17l-94 42c-56.667 18.667 -104.667 41.334 -144 68.001c-14.667 1.33301 -26 4.33301 -34 9l-68 25l-26 17c-88.667 33.333 -159 64 -211 92h26h34h25h34h152h42h43h25h68h26h25h26h26h102l49 9
c6 6.66699 11.667 9.33398 17 8.00098l111 34c5.33301 10.667 11 16.334 17 17.001l25 9c37.333 40 71.333 71.333 102 94c18.667 42 35.667 76 51 102l18 110v33v25v170v26v153v26v262c-10.667 192.667 -98.667 325.334 -264 398.001l-135 25l-59 9h-51h-60h-170h-60h-49
h-43h-51h-34h-153h-94h-34h-34h-32h-34h-145h-26h-102c-198.667 -35.333 -331.334 -134 -398.001 -296z" />
    <glyph glyph-name="four" unicode="4" horiz-adv-x="2996" 
d="M1467 1760l-23.999 -29.999c-34 -40 -58.333 -75.333 -73 -106l-15 -15l-9 -15l-15 -26l-15 -7c-19.333 -41.333 -41 -73.333 -65 -96l-8 -16c-17.333 -26 -33.333 -47.333 -48 -64l-32 -39c-26 -52 -55.333 -95 -88 -129c-26 -50 -55 -89.667 -87 -119l-17 -41l-39 -39
l-17 -41l-39 -41l-24 -39c-46.667 -76.667 -89.667 -135.334 -129 -176.001l-15 -33l-24 -24l-17 -32l-16 -24l-23 -23l-9 -24l-15 -24l-49 -64l-16 -24l-15 -16c-54.667 -88 -102.667 -154.667 -144 -200c13.333 -26 58.666 -34 135.999 -24h56h159h39h50h39h32h24h160h32
h24h144h104h32h136h65h56v-448h-56h-24h-26h-246h-56h-49h-57h-47h-39h-49h-31h-144h-89h-32h-32h-31h-32h-136h-24h-97c-11.333 -62.667 -14 -116 -8 -160h23h26h24h103h112h24h39h26h30h26h160h136h23h96h105h30h136h26h95h88h39h106h30h136h26h95v24v24v23v106v112v24v39
v23v33v24v159v65v64v112v24v39v26v30v26v160v135v24v95v33v23v162v30v24v145v103v32v136v24v97h-104h-32h-144h-33h-30h-33h-135h-24h-97zM1668 1544v-1063h-50h-39h-47h-33h-144h-88h-33h-30h-33h-32h-136h-24h-96l8 15l15 26l17 7c19.333 41.333 41 73.333 65 96l31 48
l23 41c33.333 46 63 82.667 89 110l8 17l9 24c30.667 32.667 51.667 62 63 88l23 33l33 39l23 23l17 33l16 32l23 24l17 32l24 32l48 56l8 24l16 15l17 24l6 17l17 24l39 41c19.333 39.333 41 71 65 95l56 97z" />
    <glyph glyph-name="five" unicode="5" horiz-adv-x="2996" 
d="M254 1572h59.001h60h25h26h262h60h50h60h51h42h51h34h152h93h34h34h34h34h144h68h59v-466h-51h-144h-25h-26h-169h-110h-119h-25h-34h-26h-25h-25h-26h-25h-110c-66.667 -2 -123.334 -7.66699 -170.001 -17c-18 -9.33301 -35 -15 -51 -17
c-22.667 -18 -45.334 -29.333 -68.001 -34l-118 -102l-60 -152v-721c-2 -66.667 1 -123 9 -169l8 -17l9 -17v-26c29.333 -38 52 -71.667 68 -101l25 -9l9 -17l50 -34l111 -51l135 -25h34h110h34h34h34h144h25h102h51h42h34h153h34h34h34h144h67h60l17 8h25l59 9
c44.667 16.667 81.667 28 111.001 34c5.33301 10 11 15.667 17 17l16 8l17 9l17 17c44.667 34 78.667 65 102 93l34 102h-25h-34h-144h-26h-102c-16.667 -45.333 -44.667 -76.666 -84 -93.999c-656.667 -92.667 -967.667 82.666 -933 525.999c-18 146 -3.66699 273 43 381
c45.333 68 99 119 161 153h25c44 26 86.333 40 127 42c56.667 8 104.667 11 144 9h51h43h51h33h153h93h34h34h34h34h144h25h102v59v51v43v50v34v153v93v34v34v34v34v144v25v102h-25h-26h-263h-67h-68h-119h-25h-43h-25h-34h-25h-170h-144h-25h-102h-34h-25h-170h-34h-25
h-153h-110h-34h-144h-25h-102v-229z" />
    <glyph glyph-name="six" unicode="6" horiz-adv-x="2996" 
d="M295 466v-62c14.667 -44 23.334 -81.333 26.001 -112c20 -26 34.667 -52 44 -78l17 -19l8 -17l17 -51l28 -27l34 -51c47.333 -46.667 81.666 -87.667 102.999 -123c353.333 -254.667 733.333 -364.667 1140 -330h43h27h34h26h173c26 18.667 46.333 35.667 61 51
c-11.333 48 -37.333 80.333 -78 97c-658 -36 -1049.33 204.667 -1174 722c213.333 -104.667 425 -145.667 635 -123c306 0 547 107.333 723 322l25 148v27v25l9 26v87v27v34v27v87v34l-9 70v25c-18 56.667 -26.333 106 -25 148c-210 276 -511.667 392.333 -905 349h-34h-36
h-25h-34h-157c-620.667 -121.333 -852.667 -559 -696 -1313zM1626 1309c88 -309.333 15.333 -543.999 -218 -703.999c-307.333 -74.667 -487 64.333 -539 417c-4.66699 294.667 120 480 374 556c186 -24.667 313.667 -114.334 383 -269.001z" />
    <glyph glyph-name="seven" unicode="7" horiz-adv-x="2996" 
d="M158 1599l174.001 -0.000976562h52h147h27h104h112h34h149h25h106h95h43h112h36h148h25h104v-61c2.66699 -77.333 0 -141 -8 -191l-26 -53c-19.333 -72.667 -45.333 -133.334 -78 -182.001l-17 -34l-10 -17l-17 -9c-8 -24.667 -16.667 -45 -26 -61l-34 -53l-19 -25
l-25 -26c-18.667 -39.333 -36.334 -71 -53.001 -95l-17 -27l-17 -26l-17 -25l-53 -70l-68 -123l-19 -17l-17 -25l-8 -26l-17 -19c-19.333 -44 -40 -78.333 -62 -103c-13.333 -54.667 -30.333 -98 -51 -130c-2 -35.333 -8 -67 -18 -95v-36c2 -34 -1 -65.667 -9 -95v-373h36
h34h156h35h35h34h148h26h104v34v87v36v86v26v26v27v59v106c10 32 15.667 61 17 87l27 51c18 60 38 109.333 60 148l27 34l17 44l26 26l8 25c6 10.667 11.667 16.334 17 17.001l10 27l17 18l34 61l9 25c21.333 22 36 42.667 44 62l17 25l17 26l17 27l9 17l87 112l10 26l17 19
l8 25l17 17l9 17l8 27l17 9l11 34l8 17l17 17l9 19l8 25l17 17c16 54.667 33.667 98.334 53 131.001c1.33301 32 7 61 17 87v26v34v27v43v25v36v25v174h-61h-60h-36h-42h-36h-43h-112h-36h-148h-25h-104h-61h-60h-53h-61h-51h-62h-52h-147h-52h-43h-53h-34h-157h-95h-36h-34
h-34h-35h-149h-25h-104v-199z" />
    <glyph glyph-name="eight" unicode="8" horiz-adv-x="2996" 
d="M426 1254c3.33301 -292.667 134.668 -481.331 394.001 -565.998c-332 -150.667 -454.667 -374.334 -368 -671.001c174.667 -313.333 460 -458 856 -434c342 20 582.333 167.333 721 442c80 287.333 -37.333 505.666 -352 654.999c275.333 114 407 308.667 395 584l-9 34
l-26 63c-20 26.667 -33.667 53 -41 79c-245.333 256 -528 368.333 -848 337c-360.667 -40.667 -601.334 -215 -722.001 -523zM1493 1343c91.333 -174 57.667 -301.001 -101 -381.001c-188 -49.333 -311 15.667 -369 195c18.667 156.667 96.667 248.334 234 275.001
c92 -5.33301 170.667 -35 236 -89zM1493 325.002c91.333 -173.333 57.667 -299.667 -101 -379c-188 -50.667 -311 14.333 -369 195c18.667 156 96.667 247 234 273c92 -5.33301 170.667 -35 236 -89z" />
    <glyph glyph-name="nine" unicode="9" 
 />
    <glyph glyph-name="colon" unicode=":" 
 />
    <glyph glyph-name="semicolon" unicode=";" 
 />
    <glyph glyph-name="less" unicode="&#x3c;" 
 />
    <glyph glyph-name="equal" unicode="=" 
 />
    <glyph glyph-name="greater" unicode="&#x3e;" 
 />
    <glyph glyph-name="question" unicode="?" 
 />
    <glyph glyph-name="at" unicode="@" 
 />
    <glyph glyph-name="A" unicode="A" horiz-adv-x="3003" 
d="M1483 1337h34h199h33h343h34h200h32h343v44v44v187v35v132h-67h-144h-76h-156h-32h-199h-146h-44h-188h-32h-134v-442zM0 1325c107.333 -1215.33 815.999 -1775.67 2126 -1681h154h34h56h32h44h33h222v32v44v44v44v46v188v32v133h-56h-44h-55h-144h-44h-188h-34h-132
c-964.667 -106 -1577 208 -1837 942l-12 132v111c-29.333 22 -58.666 33 -87.999 33c-32 -27.333 -54.333 -60.666 -67 -99.999zM1483 650.998h34h199h33h343h34h200h32h343v44v44v188v32v134h-67h-144h-76h-156h-32h-199h-146h-44h-188h-32h-134v-442z" />
    <glyph glyph-name="B" unicode="B" horiz-adv-x="2994" 
d="M0 1521h95h36h37h240h95h95h36h37h372h82h73h83h73h58h73h49h214h133h47h48h49h46h204h97h83v95v36v156h-95h-36h-37h-240h-95h-95h-36h-37h-372h-82h-73h-83h-73h-58h-73h-49h-214h-133h-47h-48h-49h-46h-204h-37h-143v-287zM0 1030h36h47h204h97h83
c194 -846 720.667 -1321.67 1580 -1427l36 12c102.667 -2.66699 187 5.33301 253 24c21.333 46 29.333 94 24 144l-48 12h-37h-36h-35h-36h-36h-85c-47.333 13.333 -91 21.333 -131 24c-517.333 268 -804.333 671.667 -861 1211h70h73h83h73h58h73h49h214h133h47h48h49h46
h204h97h83v95v36v156h-95h-36h-37h-240h-95h-95h-36h-37h-372h-82h-73h-83h-73h-58h-73h-49h-214h-133h-47h-48h-49h-46h-204h-37h-143v-287z" />
    <glyph glyph-name="C" unicode="C" horiz-adv-x="3003" 
d="M114 1713l140 -0.00292969h128h40h180h40h40h40h170h80h69v-170h-140h-129h-40h-179h-40h-40h-40h-170h-29h-120v-978c10.667 -38.667 17.334 -75 20.001 -109l20 -29v-31l20 -20v-29c7.33301 -7.33301 10.333 -14 9 -20c42 -59.333 72.333 -112.666 91 -159.999
c448 -493.333 1022.67 -666.333 1724 -519v120c-380.667 -71.333 -706.334 -1.66602 -977.001 209.001c-325.333 261.333 -461.333 590.333 -408 987v31v40v29v199h60h29h130h60h69h60h51h59h40h180h109h40h40h39h40h169h80h71v-419h108h51h29h40h31h199v40v40v179v40v40v40
v171v29v120h-39h-51h-40h-49h-131h-40h-29h-40h-30h-40h-180h-29h-31h-199v170h139h131h40h179h40h40h40h169h31h119c1.33301 36.667 -5.33398 66.334 -20 89.001h-199h-80h-80h-79h-80h-200h-31h-29h-308h-71h-60h-68h-60h-51h-60h-40h-179h-109h-40h-40h-40h-40h-170h-29
h-120v-89z" />
    <glyph glyph-name="D" unicode="D" horiz-adv-x="2986" 
d="M70 719c8.66699 -10.667 12.334 -21.666 11.001 -32.999c12 -23.333 19.333 -46 22 -68c32 -46 51 -90.667 57 -134c13.333 -7.33301 20.666 -14.666 21.999 -21.999l46 -79c52.667 -48.667 93.667 -93.334 123 -134.001l33 -11l134 -79h55l46 -11h123h44h191h33h134
c150.667 -281.333 374.667 -449 672 -503c218 -72 423 -72 615 0l-22 101c-106.667 22 -192.334 48 -257.001 78c-492 195.333 -693.333 646.666 -604 1354h-123h-57h-33h-46h-33h-224v-426c-3.33301 -178.667 8.33398 -323.667 35.001 -435
c-436 51.333 -619 442.333 -549 1173h79h66h79h66h191h68h55h68h44h202h123h44h44h46h44h191h90h77v46v33v224h-90h-222h-35h-33h-347h-79h-66h-79h-66h-57h-66h-46h-200h-123h-46h-44h-46h-44h-191h-33h-134z" />
    <glyph glyph-name="E" unicode="E" horiz-adv-x="3013" 
d="M40 1478h103h257h77h221h103h90h168h50h221h103h90h141h65h168h51h219h40h154v38v51v233h-103h-257h-79h-219h-39h-154h-168h-50h-221h-39h-154h-141h-65h-168h-51h-221h-38h-154v-322zM1496 -378c48.667 -2.66699 92.001 -11.333 130.001 -26h38h168h39h103h39h38h39h38
l104 26l206 39v142c-456.667 -92 -856.334 -19.333 -1199 218c-347.333 232.667 -545.333 538 -594 916h92h257h65h77h64h51h41h257h51h38h233h168h51h219h103h91v103v258h-51h-40h-63h-40h-51h-39h-257h-79h-219h-38h-154h-168h-53h-219h-38h-154h-142h-65h-168h-51h-220
h-39h-154c-47.333 -940 451 -1498.67 1495 -1676z" />
    <glyph glyph-name="F" unicode="F" horiz-adv-x="3003" 
d="M1470 -400l29.999 0.00195312h39h31h200h30c144.667 3.33301 261.667 20.333 351.001 51v90c-507.333 -24 -891.666 149.333 -1153 520c-66.667 78.667 -110 159 -130 241l171 50l141 50l59 11l31 10l40 10c9.33301 6.66699 19 10 29 10l41 9
c10 7.33301 20 10.666 30 9.99902l29 20h31l30 20h39c10.667 8 21 11.667 31 11c36 20 69.333 30 100 30c53.333 28.667 103.666 45 150.999 49c5.33301 37.333 5.33301 70.666 0 99.999c-17.333 33.333 -27.666 60.666 -30.999 81.999c-3.33301 50 -10 93 -20 129l-59 -10
h-41c-32.667 -16 -62.667 -22.333 -90 -19c-6.66699 -8 -13.334 -11.333 -20.001 -10l-70 -10c-49.333 -19.333 -92.666 -29.666 -129.999 -30.999c-40 -11.333 -77 -18 -111 -20c-10 -6.66699 -20 -10 -30 -10l-139 -29l-31 -10l-79 -11l-82 -20l-120 -31v41
c-10 38.667 -13.333 72 -10 100v41v39v41v169v31v120h140h131h41h179h41h39h41h169h82h69c151.333 -307.333 368.333 -521 650.999 -641c12.667 43.333 26.334 80 41 110c-228.667 260 -339 547.333 -331 862h-79h-82h-200h-30h-29h-312h-70h-59h-71h-60h-50h-60h-40h-180
h-110h-41h-41h-39h-40h-170h-31h-120c-60 -1252.67 384.333 -1987.67 1333 -2205z" />
    <glyph glyph-name="G" unicode="G" horiz-adv-x="3003" 
d="M984 1592h-250.997h-64h-37h-50h-50h-51h-50h-214h-37h-151c27.333 -362 161.333 -655 402 -879l-37 -25l-39 -14l-25 -25l-37 -13l-12 -24l-89 -38c-54 -49.333 -108.333 -83 -163 -101v-528l12 -74l25 25c47.333 29.333 89.333 50.333 126 63
c60 53.333 118.667 90.666 176 111.999l39 25l49 27c8.66699 14 17 22 25 24l25 25l39 13l25 24l37 25l88 52c90 56.667 165.333 98.334 226 125.001l63 -26v-603h-251h-64h-37h-50h-50h-51h-50h-214h-37h-151v-200h50h39h62h37h51h38h251h75h214h99h89h163h51h213h37h151
h138h64h163h50h214h100h88v37v163h-49h-64h-50h-64h-49h-62h-165h-50h-213h-39h-150v390c-2.66699 47.333 18.666 64 63.999 50l175 -50h62l39 -12l151 -13h49c114 -16 206.333 -20 277 -12l50 50c-10.667 40 -27.334 73.667 -50.001 101
c-646.667 34 -1144.67 280.667 -1494 740c-50.667 78 -84.334 149 -101.001 213h74h89h251h87h77h62h76h49h227h139h49h50h51h50h214h100h88v101v252h-49h-64h-50h-64h-49h-62h-165h-50h-213h-39h-150c6 78 -2.33301 144.667 -25 200h-50h-51h-213h-37h-151v-200z" />
    <glyph glyph-name="H" unicode="H" horiz-adv-x="3003" 
d="M138 1637h27.002h29h27h121h159h74h64h121h37h159h27h111h103h46h121h37h159h27h111v-249h-64h-66h-27h-28h-289h-64h-55h-66h-56h-45h-58h-37h-167h-101h-37h-37h-39h-37h-157h-29h-111c-38.667 -386 69.666 -693 324.999 -921
c200.667 -157.333 414.334 -207 641.001 -149l-18 74c-327.333 42 -510 271.667 -548 689h158h56h64h121h289h130h27h47h29h37h27h185v-522c3.33301 -57.333 0.666016 -106.666 -8.00098 -147.999c-6 -58.667 -15.667 -108 -29 -148l-37 -56
c-40.667 -85.333 -93 -153.333 -157 -204l-66 -37c-54.667 -30.667 -101.334 -52.667 -140.001 -66h-27l-121 -19h-64h-56h-47h-56h-37h-167h-103h-37h-37h-37h-37h-159h-27h-111v-278h27h47h27h37h29h185h38h47h120h37h158h27h113h37h38h27h167h121h37h159h74h64
c10 6.66699 19.667 10 29 10l55 9c9.33301 6.66699 19 10 29 10l19 18h27c18.667 12.667 37 21.667 55 27l56 37l47 56l19 10l8 19l19 8l10 19l18 10c21.333 46 43 83 65 111v27c30 65.333 45.667 127.666 47 186.999v56v46v37v167v37v37v37v159v28v112v37v167h74v37v37v27
v37v169c-66.667 -9.33301 -91.334 21.667 -74 93v27v121c23.333 8 48 10.667 74 8v159h-66h-157h-28h-112h-27h-28h-186h-74h-74h-29h-27h-289h-65h-56h-64h-56h-47h-56h-37h-167h-103h-37h-37h-37h-37h-159h-27h-111v-159z" />
    <glyph glyph-name="I" unicode="I" horiz-adv-x="3003" 
d="M579 1728l-10 -31.001v-68l-29 -246l-10 -79l-19 -226l-10 -68l-10 -70v-59l-19 -128v-59c-6.66699 -30.667 -10 -56.334 -10 -77.001l-10 -129l-11 -29v-60l-10 -20l-10 -158l-10 -39l-9 -136l-10 -31c0 -53.333 -3.33301 -98.666 -10 -135.999v-31
c-8.66699 -42 -12 -77.667 -10 -107c-14 -61.333 -20.333 -114 -19 -158h29h39h41h39h39h167h78h70c0 76.667 6.66699 142.334 20 197.001v77l9 32v48l10 20v39v29l10 21c0 46.667 3 85.667 9 117v58l10 51v49l10 29v39v31l10 29v29l19 158l10 68v39v29l10 22l11 177l10 39
v58l10 49l9 138l10 39v50l10 49v29l10 29v39l29 306h-29h-39h-41h-39h-39h-167h-30h-118v-68zM1336 1767c-2.66699 -61.333 1.00098 -114 11.001 -158l10 -167l10 -29v-59l10 -31v-88l9 -68c17.333 -52 24 -98 20 -138c7.33301 -10 10.333 -19.667 9 -29v-29l20 -80l19 -68
l10 -29l10 -32l10 -58l9 -29l51 -167c15.333 -32.667 25 -58.667 29 -78l29 -70l20 -20l9 -29l20 -29l10 -20c34.667 -44 61 -83.333 79 -118l20 -10l10 -20c11.333 -6 17.666 -12.333 18.999 -19c31.333 -23.333 54 -43.333 68 -60l20 -10l11 -20
c52 -22 94.333 -44.667 127 -68c52 -12.667 98 -12.667 138 0v68c-63.333 48 -112.666 94.333 -147.999 139c-230.667 399.333 -325.334 809.333 -284.001 1230v97v39v41v29v39v177h-31h-39h-167h-30h-118v-29z" />
    <glyph glyph-name="J" unicode="J" horiz-adv-x="3003" 
d="M2138 -371c20.667 41.333 29.666 81 26.999 119c-39.333 8.66699 -73.333 11.667 -102 9l-72 -9c-71.333 -18.667 -135.666 -24.667 -192.999 -18c-741.333 196 -1065 715 -971 1557v28v165v27v284h-37h-100h-47h-26h-37h-27h-184
c-112.667 -1621.33 477 -2342 1769 -2162zM1194 1745l-9 -54l-10 -28c-18 -48 -30.333 -90.667 -37 -128l-18 -65l-9 -18l-10 -28v-26l-44 -146l-10 -28l-9 -28l-9 -28l-9 -28l-10 -44l-37 -148h28h28h46h26h37h28h184l9 46l18 55l10 47l18 63l17 37v37
c20 48 32.333 90.667 37 128l19 37l9 44l9 28v28l9 28l19 28v35l9 28l19 74c13.333 34.667 22 68 26 100h-26h-28h-46h-28h-37h-26h-184zM1733 1745l-9 -53.999l-7 -28c-18.667 -48 -31 -90.667 -37 -128l-19 -65l-9 -18l-9 -28v-26l-47 -146l-9 -28l-9 -28l-10 -28l-7 -28
l-9 -44l-37 -148h27h26h47h28h37h27h182l9 46l10 37c14.667 37.333 23.667 70.666 27 99.999l10 37l9 28l19 72l9 28l9 19l37 146l8 28l9 37l18 28v35l10 28l18 74c14.667 34.667 24 68 28 100h-28h-28h-44h-28h-37h-28h-183z" />
    <glyph glyph-name="K" unicode="K" horiz-adv-x="3003" 
d="M1160 1592l-54.999 0.000976562h-64h-119h-283h-129h-27h-46h-27h-38h-27h-183v-1613c21.333 -42.667 36.666 -78.667 45.999 -108l27 -19c38.667 -42 78.334 -72.667 119.001 -92h29l62 -8h46h37h46h119h37h155h29h108v27v27v284c-188.667 -21.333 -338 -6 -448 46
l-18 45v56v155v56v46v54v37v165v100v37v36v37v36v156v27v111h37h165h35h38h37h154h29h109c-70.667 -806.667 231.666 -1350 906.999 -1630h28l18 -10c76 -18 140 -27 192 -27c30.667 32.667 43 66 37 100l-29 37c-403.333 191.333 -626 493.666 -668 906.999l-9 37l-8 183
v36v37v36v156v27v111h27h36h29h35h165v37v36v27v37v165h-155h-28h-109v27v37v165h-29h-35h-38h-35h-38h-156h-27h-110v-229z" />
    <glyph glyph-name="L" unicode="L" horiz-adv-x="3003" 
d="M1056 1768l-10 -25.999c-2 -48.667 -7.66699 -89.667 -17 -123v-26l-17 -107h-52h-36h-158h-97h-35h-36h-34h-35h-150h-27h-105v-307h36h25h176h26h159h26h273v-35l-27 -150v-34l-17 -151l-9 -61l-8 -61c-16 -82.667 -25 -150 -27 -202l-27 -18h-34h-97h-44h-114h-35
h-150h-27h-105v-280l17 -27h149h97h36h149h71h61l-8 -61v-45l-9 -27v-61l-10 -44l-17 -97c0 -30 -2.66699 -53 -8 -69l-19 -141h36h96h44h28h33h28h176l34 8c2 51.333 8.33301 92.666 19 123.999v34c11.333 61.333 17 111.333 17 150l8 27v27l9 17c2 63.333 8 116 18 158h44
h26h176h114h35h158h36h34h35h150h27h105v44v27v34v27v175h-27h-175h-115h-34h-158h-36h-35h-36h-149h-26h-105v44l9 35v28l8 17l17 149v27c10 34 16.333 66.333 19 97v25l8 61l9 19c2 63.333 7.66699 116 17 158l10 52h61h122h27h158h114h35h150h27h105v44v26v35v28v174h-36
h-34h-27h-176h-26h-157h-27h-274v44l11 28c2 49.333 7.66699 90 17 122v27l17 105h-45h-113h-36h-149h-26h-105v-44z" />
    <glyph glyph-name="M" unicode="M" horiz-adv-x="3003" 
d="M1182 941h-41h-24h-33h-32h-33h-33h-138h-24h-98v-310h41h24h33h32h33h32h139h24h98v-431h24h33h24h163c8 6.66699 13.333 14.667 16 24v33v89v41v25v32v25v162h106h32h33h33h138h65h57v25v40v25v32v25v163h-106h-32h-33h-32h-139h-24h-98v40v106v33v138v24v98h-138h-25
h-97v-439z" />
    <glyph glyph-name="N" unicode="N" horiz-adv-x="3003" 
d="M535 1200h61h106h22h37h23h30h23h151h127h23h91h31h21h151h31h23h134h99h31h128h21h92v29v23v151h-61h-106h-22h-37h-23h-30h-23h-151h-127h-23h-91h-31h-21h-151h-31h-23h-134h-99h-31h-128h-21h-92v-203zM430 100h234h22h151h52h46h53h45h53h46h52h45h127h46h38h46h30
h136h82h31h29h30h31h128h23h90v233h-234h-22h-151h-52h-46h-53h-45h-53h-46h-52h-45h-127h-46h-38h-46h-30h-136h-82h-31h-29h-30h-31h-128h-23h-90v-233z" />
    <glyph glyph-name="O" unicode="O" horiz-adv-x="3003" 
d="M1106 1096l-101.999 47.001l-32 16c-12.667 1.33301 -23 4 -31 8l-24 8l-86 39l-32 16l-32 8l-31 16l-16 8l-126 55v-284c13.333 -1.33301 24 -4 32 -8l31 -16l32 -7l15 -8c26.667 -13.333 50.334 -24 71.001 -32l16 -8l118 -47l-23 -16l-32 -16l-31 -7l-32 -16l-197 -87
v-268c30 8 56.333 18.667 79 32l31 15l40 8c43.333 25.333 80 43.666 110 54.999h24l16 16l31 8l24 16l55 16c32.667 22 66.667 37.667 102 47v-410h142h111v110v24v39v24v32v23v158l31 -8l16 -8c26 -13.333 49.667 -23.666 71 -30.999c39.333 -16 71 -32 95 -48l39 -8
l24 -15l31 -8l16 -16h24c65.333 -36.667 125.666 -60.334 180.999 -71.001v24v244l-79 32l-23 7l-16 8c-26.667 13.333 -50.334 24 -71.001 32c-35.333 13.333 -64.333 26.333 -87 39l-47 16c31.333 22.667 60 36 86 40l16 15h24l16 16l181 71v39v24v32v23v158l-47 -16
c-38 -23.333 -75 -39 -111 -47l-23 -16l-32 -16l-31 -8l-32 -15l-31 -8l-16 -16h-24c-66.667 -40.667 -127 -67 -181 -79v32v31v32v134v23v95h-134h-24h-95v-347z" />
    <glyph glyph-name="P" unicode="P" horiz-adv-x="3003" 
d="M391 110h242h24h156h56h46h56h45h56h46h56h46h134h46h39h47h32h141h85h32h30h33h30h134h24h93v242h-242h-24h-156h-56h-46h-56h-45h-56h-46h-56h-46h-134h-46h-39h-47h-32h-141h-85h-32h-30h-33h-30h-134h-24h-93v-242z" />
    <glyph glyph-name="Q" unicode="Q" horiz-adv-x="2994" 
d="M329 564h242h24h156h55h47h55h47h55h46h54h48h133h47h38h47h33h140h86h31h31h31h31h133h25h93v242h-242h-24h-156h-55h-47h-55h-47h-55h-46h-54h-48h-133h-47h-38h-47h-33h-140h-86h-31h-31h-31h-31h-133h-25h-93v-242z" />
    <glyph glyph-name="R" unicode="R" horiz-adv-x="3003" 
d="M1228 -128h22h22h225v51v44v51v145v59v58v58v58v146v22v22v226v51v43v51v44v36v44v29v131v80v30v29v29v29v124v22v87h-22h-22h-225v-1799z" />
    <glyph glyph-name="S" unicode="S" horiz-adv-x="2560" 
 />
    <glyph glyph-name="T" unicode="T" horiz-adv-x="3003" 
d="M171 1648l10.001 -43v-84l11 -23l10 -160l23 -84l9 -65l21 -85l21 -128l-42 -9c-6 -9.33301 -13 -13.333 -21 -12l-21 -11h-32c-54.667 -25.333 -108 -43.333 -160 -54v-457l95 21l23 21h31l32 21h32c10.667 8.66699 21.667 12.667 33 12c6 8.66699 13 12.334 21 11.001
l169 63c363.333 -786 988.666 -1098.33 1876 -937l11 21l74 21h33l74 32v95c-660 -83.333 -1136 137 -1428 661l-21 12l-12 32l-95 244l54 11l41 21l54 12l32 21l65 9c30.667 21.333 58.667 36 84 44l32 9l53 12l44 11c30.667 22 58.667 36 84 42l32 12h33l74 30l149 53v44
v42v32v42v193l-42 -12l-63 -21h-33c-55.333 -25.333 -105.333 -39.333 -150 -42l-30 -20l-65 -12l-54 -21l-32 -11l-32 -10l-105 -23l-44 -9c-6 -9.33301 -13 -13.333 -21 -12l-32 -9l-192 -53v41v54l-10 42c0 42 -3.66699 77.333 -11 106l-10 130v42l-11 74v32l-12 128h-53
h-42h-53h-139h-42h-181h-32h-128c7.33301 -58.667 11 -108.334 11 -149.001z" />
    <glyph glyph-name="U" unicode="U" horiz-adv-x="2048" 
 />
    <glyph glyph-name="V" unicode="V" horiz-adv-x="2048" 
 />
    <glyph glyph-name="W" unicode="W" horiz-adv-x="2048" 
 />
    <glyph glyph-name="X" unicode="X" horiz-adv-x="2048" 
 />
    <glyph glyph-name="Y" unicode="Y" horiz-adv-x="2048" 
 />
    <glyph glyph-name="Z" unicode="Z" horiz-adv-x="2048" 
 />
    <glyph glyph-name="bracketleft" unicode="[" 
 />
    <glyph glyph-name="backslash" unicode="\" 
 />
    <glyph glyph-name="bracketright" unicode="]" 
 />
    <glyph glyph-name="asciicircum" unicode="^" 
 />
    <glyph glyph-name="underscore" unicode="_" 
 />
    <glyph glyph-name="grave" unicode="`" 
 />
    <glyph glyph-name="a" unicode="a" horiz-adv-x="3003" 
d="M1312 1771c13.333 -21.333 21.3291 -50.3311 23.9961 -86.998c5.33301 -8 8 -16 8 -24c8 -20 13.333 -38.667 16 -56c12 -32 20 -58.667 24 -80l15 -55l16 -56l24 -80v-32c29.333 -71.333 48 -132.333 56 -183l16 -55c20 -64 33.333 -117.333 40 -160
c17.333 -42 28 -79 32 -111l16 -40l8 -55l7 -32c22.667 -48 36 -93.333 40 -136l8 -31l16 -32v-32l16 -24l8 -24l8 -64c5.33301 -8 8 -15.667 8 -23l8 -32l16 -64c22.667 -48 36 -93 40 -135l-136 32l-55 7l-40 8l-104 16l-32 8l-143 32l-32 8
c-38 2.66699 -72.333 8 -103 16l-24 8h-24c-32 9.33301 -61.333 14.666 -88 15.999c-30 10.667 -56.333 16 -79 16l16 56l24 47l8 40l47 135l8 32l16 32l8 24l32 103l40 112l8 16l8 32l8 24l8 23l24 56l23 88h-246h-112h-24h-40h-23h-32h-24h-159l-8 -32l-64 -175l-16 -56
l-24 -48l-16 -63l-16 -48l-16 -32l-16 -32l-7 -56l-8 -23c-12 -25.333 -20 -46.666 -24 -63.999l-8 -24l-24 -56l-24 -87l-16 -40l-16 -48l-8 -24l-40 -103l-8 -32l-8 -32l-16 -24v-24c-14 -30 -24.333 -59 -31 -87l-24 -56l-16 -64c-20 -47.333 -33.333 -87 -40 -119h247
h111h24h40h24h32h24h159l16 64c14.667 30 25.334 59 32.001 87l39 -8l40 -8c38.667 -2.66699 73.334 -8 104.001 -16l32 -8l31 -8l40 -7h32l48 -16l32 -8h24l31 -8l32 -8h32l135 -32l64 -8l56 -16h48h39h48h24h159h104h32h143h32h32h32h135h24h95
c16 56 18.667 106.333 8 151l-8 24l-8 48l-16 24v32c-5.33301 8 -8 15.667 -8 23l-7 32c-5.33301 8 -8 16 -8 24l-8 24l-8 24v24c-5.33301 8 -8 16 -8 24c-18.667 35.333 -29.334 69.666 -32 102.999c-17.333 50.667 -28 93.334 -32 128.001c-5.33301 7.33301 -8 15 -8 23
l-8 32c-5.33301 8 -8 16 -8 24l-8 24l-8 16v24c-5.33301 8 -8 16 -8 24c-20 54 -33.333 99 -40 135l-16 56v24c-15.333 27.333 -23 53.666 -23 78.999l-16 48c-14.667 40 -22.667 74.333 -24 103c-8 14.667 -13.333 28 -16 40l-16 40v24
c-13.333 33.333 -21.333 62.666 -24 87.999l-16 47l-8 24l-8 24v24c-21.333 52 -34.666 99.667 -39.999 143l-16 40v24c-18 36 -28.333 70.333 -31 103l-8 16l-16 72l-8 16v24c-21.333 51.333 -34.666 99 -39.999 143h-48h-40h-31h-144h-32h-31h-32h-136h-24h-95v-24z" />
    <glyph glyph-name="b" unicode="b" horiz-adv-x="3003" 
d="M508 344l-19.002 -20.999c-6.66699 -11.333 -13.667 -18.333 -21 -21c-30 -60 -59.667 -106.667 -89 -140c-22 -40 -45.667 -69.667 -71 -89l-19 -50c-27.333 -36 -50.666 -62.333 -69.999 -79l-19 -40c-7.33301 -10.667 -14.333 -17.667 -21 -21
c-11.333 -24.667 -24.333 -44 -39 -58l-11 -21c-6.66699 -10.667 -13 -17 -19 -19l-10 -31l-100 -150h40h50h129h39h171h29h121l8 31l21 30l21 20c5.33301 11.333 11.666 17.666 18.999 18.999l39 71c7.33301 11.333 14.333 17.666 21 18.999l10 21
c42 72 81.667 128 119 168c513.333 -383.333 1051.33 -479.666 1614 -288.999v31v129l-40 -10l-19 -11l-89 -18h-31c-47.333 -12.667 -87 -19.667 -119 -21h-40l-250 10c-753.333 220.667 -1095.33 758.667 -1026 1614c24.667 16.667 48.334 23.667 71.001 21h39h179h69h200
h50h60h50h40h29h200h39h30h179h131h39h169h31h119v29v32v308h-79h-71h-39h-50h-40h-50h-129h-40h-170h-30h-118h-71h-69h-60h-71h-58h-71h-60h-169h-60h-50h-59h-39h-181h-109h-39h-42h-39h-40h-169h-31h-118c-15.333 -556.667 107.334 -1044.67 368.001 -1464z" />
    <glyph glyph-name="c" unicode="c" horiz-adv-x="3003" 
d="M0 1752l-0.00292969 -1057c12.667 -45.333 20.334 -86.666 23.001 -123.999l22 -33v-35l23 -23v-33c8.66699 -8 12.334 -16 11.001 -24c46.667 -65.333 80.334 -124.666 101.001 -177.999c506.667 -556.667 1155.67 -752.334 1947 -587.001v136
c-723.333 -110 -1226.33 141 -1509 753l-10 35v45l-23 33l-11 79l-12 124v33v204v32v349h68h35h145h68h79h68h56h66h47h201h124h45h46h45h44h192h33h136v-473h124h56h33h44h35h225v35v57v32v47v33v225v191v33v136h-68h-33h-46h-190h-35h-134h-91h-225h-32h-35h-349h-80h-65
h-80h-68h-56h-68h-44h-204h-122h-46h-45h-44h-45h-192h-33h-135z" />
    <glyph glyph-name="d" unicode="d" horiz-adv-x="3003" 
d="M279 1393c-65.333 -998.667 325.667 -1600.67 1173 -1806h284h28h92l203 37c22 55.333 27.333 104.333 16 147l-72 -9l-73 -18l-111 -19c-761.333 130.667 -1100.33 656 -1017 1576v101v37v27v46v28v37v26v184h-120h-37h-35h-36h-157h-28h-110v-394zM1745 1732
c-23.333 -48 -38 -91.001 -44 -129.001l-9 -17l-46 -110l-9 -28l-37 -120l-19 -37l-9 -27l-9 -28l-9 -35l-9 -28l-10 -18l-9 -28c-14.667 -29.333 -24 -53.666 -28 -72.999c-18 -46 -30 -83 -36 -111h36h102h46h28h35h27h184c30 36 48.667 73 56 111l18 55l19 55l27 55
l35 118l46 102v27l37 74l9 28v27l10 26l9 19l9 27l46 120h-101h-37h-28h-44h-28h-37h-27h-184z" />
    <glyph glyph-name="e" unicode="e" horiz-adv-x="3003" 
d="M2215 1627l-167 -9.00293c-27.333 -1.33301 -49.333 -4 -66 -8h-75c-32 -5.33301 -59.667 -8 -83 -8h-25l-59 -9h-33h-25h-25c-37.333 -8 -70.666 -10.667 -99.999 -8l-58 -8h-25l-167 -9c-49.333 -9.33301 -96.333 -12 -141 -8c-22 -8 -44.333 -10.667 -67 -8h-50
l-41 -9h-34h-25l-166 -16h-33l-100 -9h-83l-25 -8h-67l-33 -8h-25h-25h-25c-28 -1.33301 -50.333 -4 -67 -8l-133 -9v-416h67h25c5.33301 7.33301 10.666 10 15.999 8l167 9c27.333 0 49.333 2.66699 66 8h75l67 8h66l25 9h25h34h25h25l25 8h25l166 8h25
c8 7.33301 16.333 10.333 25 9c44.667 -1.33301 83.667 1.33398 117 8.00098h24l167 8l50 9h25l166 8c42 6.66699 78.333 9.33398 109 8.00098h33l17 9c52.667 -1.33301 97 1.33398 133 8.00098c44 -1.33301 82.667 1.33398 116 8.00098h25h25
c28 1.33301 50.333 4.33301 67 9l133 8v33v92v41v25v34v25v166h-83c-8.66699 -6.66699 -17 -9.33398 -25 -8.00098zM1973 977.997h-33.001l-133 -9h-33l-150 -16h-25l-167 -9l-50 -8l-258 -17h-33h-33l-192 -16h-33h-33c-15.333 -6 -29.333 -9 -42 -9h-67
c-33.333 -8 -63.666 -10.667 -90.999 -8h-25l-17 -8h-100l-50 -9v-416h67l67 9h66l67 8c32 0 59.667 2.66699 83 8h33h25l167 9c19.333 5.33301 38.666 8 57.999 8l183 8c44.667 10 83.667 15.667 117 17h41h42h42c56.667 10.667 103.667 16 141 16h25h33
c56 8.66699 103.333 11.667 142 9l66 8h59l16 8c52.667 -1.33301 97.334 1.66699 134.001 9v33v92v41v25v33v25v167h-84c-8 -7.33301 -16.333 -10 -25 -8zM2223 361.997l-25 0.00292969h-41h-25l-25 -9h-25h-34c-58 -6.66699 -105 -9.33398 -141 -8.00098l-67 -8h-66l-25 -9
h-34h-41h-25c-8.66699 -6.66699 -17 -9.33398 -25 -8.00098h-25h-34c-58 -6.66699 -105 -9.33398 -141 -8.00098l-67 -9h-41l-34 -8h-41h-25h-25h-25c-42 -10.667 -78 -13.334 -108 -8.00098c-51.333 -11.333 -95.666 -14 -132.999 -8c-8.66699 -7.33301 -17 -10.333 -25 -9
h-67h-25c-8.66699 -6.66699 -17 -9.33398 -25 -8.00098c-44.667 1.33301 -83.667 -1.33398 -117 -8.00098h-25l-108 -9c-44 0 -82.667 -2.66699 -116 -8h-25h-34h-25l-16 -8h-100l-50 -9v-416h67h25c5.33301 7.33301 10.666 10 15.999 8l167 9c27.333 0 49.333 2.66699 66 8
h75l67 8h66l25 9h25h34h25h25l25 8h25l166 8h25c8 7.33301 16.333 10.333 25 9c44.667 -1.33301 83.667 1.33398 117 8.00098h24l167 8l50 9h25l166 8c42 6.66699 78.333 9.33398 109 8.00098h33l17 9c52.667 -1.33301 97 1.33398 133 8.00098
c44 -1.33301 82.667 1.33398 116 8.00098h25h25c28 1.33301 50.333 4.33301 67 9l133 8v33v92v41v25v34v25v166h-75c-8 -6.66699 -16.333 -9.33398 -25 -8.00098z" />
    <glyph glyph-name="f" unicode="f" horiz-adv-x="3003" 
d="M273 1403c4.66699 -63.333 11.332 -116.666 19.999 -159.999v-79l11 -49v-42l20 -78v-31c24 -63.333 37.333 -119.333 40 -168l-31 -11l-19 -10l-60 -20c-50 -20 -90 -33.333 -120 -40v-389l29 21l31 10h29l21 19l29 10l20 10h31c62 32 115.333 55.667 160 71
c210 -432 525.333 -702 946 -810c300 -74 583 -74 849 0v91c-691.333 -10 -1133.67 289 -1327 897l39 20l42 11l29 10l31 19c34 8 67 21 99 39l110 31l19 21h31l20 19l209 70v29v31v199v130l-49 -21l-42 -10l-39 -19l-50 -20l-29 -21h-31
c-10 -6.66699 -19.667 -9.33398 -29 -8.00098c-72 -42.667 -139 -69.667 -201 -81l-70 -29c-32 -16 -58.333 -26.333 -79 -31l-70 -29v110v39v170v29v120h130h199h50h60h50h41h29h199h41h29h180h131h39h170h79h70v39v41v30v39v180h-199h-41h-178h-31h-29h-311h-170h-29h-120
h-39h-31h-199h-39h-31h-179h-130h-39h-170h-31h-120v-399z" />
    <glyph glyph-name="g" unicode="g" horiz-adv-x="2994" 
d="M164 976c30 -75.333 49.333 -139.999 58 -193.999c258 -447.333 619.667 -714 1085 -800l230 -46v-34l-24 -91l-11 -24l-45 -160h354h35h136l24 80l10 56l24 69l33 115l58 229c16.667 44 28.334 82.333 35 115l21 91l13 23l67 262h-125h-56h-35h-45h-35h-229
c-10 -50.667 -21.667 -92.334 -35 -125.001l-10 -46l-57 -194v-35l-47 -136l-22 11c-104 27.333 -188.333 65.333 -253 114c-436 274 -634 651.667 -594 1133h80h229h58h67h59h45h35h229h45h35h205h149h46h194h91h80v91v229h-45h-35h-56h-35h-45h-35h-229h-69h-195h-34h-136
h-150h-45h-195h-34h-136h-126h-58h-149h-46h-194h-35h-136z" />
    <glyph glyph-name="h" unicode="h" horiz-adv-x="3003" 
d="M1849 1585l-43.002 -0.000976562h-190h-178h-33h-127h-137h-41h-180h-31h-126h-117h-54h-136h-43h-178h-33h-126v-285h31h33h31h138h178h86h73h136h43h180h31h126h116h53h138h42h179h31h128v-697c-35.333 -302.667 -179.666 -513.334 -432.999 -632.001
c-41.333 -13.333 -80 -20.333 -116 -21c-40 -13.333 -75.667 -20.666 -107 -21.999h-52h-41h-33h-211h-41h-33h-190h-136h-43h-178h-33h-126v-316h85h74h41h180h31h126h64h64h74h31h138h147h62h33h43h31h52h117h116h41h33h73h31h31h33h74l64 10
c24.667 11.333 49.334 18.333 74.001 21l19 21l76 22l62 42c32 36.667 63.667 61.334 95 74.001l12 31l52 43l10 31l21 21l10 31l64 128c14 81.333 21 151.333 21 210v75v41v53v137v43v178v33v126v43v41v33v190v136v42v179v33v126h-43h-52h-138h-40h-33h-41h-33h-43h-188
h-21h21h-21v-221z" />
    <glyph glyph-name="i" unicode="i" horiz-adv-x="3013" 
d="M399 1331h34h44h36h44h113h36h149h70h62v-1212h-273h-123h-26h-44h-26h-34h-28h-175v-369h26h177h68h62h63h26h26h271h62h53h62h52h44h52h36h157h97h36h34h36h34h151h68h62h27h114v34v28v43v27v35v26v176h-271h-125h-26h-44h-26h-34h-26h-177v53v60v177v60v54v43v54v34
v158v97v34v36v34v36v149v26v107h36h44h34h45h114h34h151h68h62v34v149v27v105h-122h-26h-44h-27h-36h-26h-175h-62h-175h-62h-52h-44h-52h-36h-157h-97h-36h-34h-36h-34h-151h-26h-104v-315z" />
    <glyph glyph-name="j" unicode="j" horiz-adv-x="2994" 
d="M530 1310c-76.667 -963.333 319.001 -1536 1187 -1718h28h26h28h117c28.667 14.667 49 29.667 61 45c1.33301 34.667 -4.33398 61.667 -17.001 81h-37l-197 19c-573.333 228 -819 722.667 -737 1484v44v35v47v117v35v152v28v108h-28h-35h-35h-38h-35h-154h-26h-108v-477z
M1546 905h117.001h36h154h26h107c11.333 13.333 17.666 28 18.999 44v127v117v37v161v36v37v35v152v28v108h-28h-35h-35h-38h-35h-152h-28h-108v-882z" />
    <glyph glyph-name="k" unicode="k" horiz-adv-x="3003" 
d="M489 1418h-27h-109v-253h27h109c-28.667 -906 376.333 -1425.33 1215 -1558c54.667 10 106.334 12.667 155.001 8c49.333 17.333 79.333 47.333 90 90l-28 46h-27h-27h-73h-27h-63c-34.667 10.667 -67.334 17 -98.001 19c-512 259.333 -731.667 724.333 -659 1395h37h36
h44h117h38h152h28h107v-251h37h27h44h27h36h27h180v72v179h163v73v180h-163v36v27v46v27v36v27v180h-36h-27h-44h-27h-36h-27h-181v-379h-72h-27h-27h-278h-155v36v27v46v27v36v27v180h-27h-36h-35h-36h-36h-154h-27h-107v-379z" />
    <glyph glyph-name="l" unicode="l" horiz-adv-x="3003" 
d="M1595 1775l-7 -58l-8 -93h-59h-51h-142h-24h-102h-108h-34h-142h-26h-100h-91h-42h-109h-34h-142h-25h-100c-28.667 -662 258.666 -985.667 861.999 -971l8 58c-8.66699 8 -14.334 16.333 -17.001 25c-233.333 32 -378.333 158 -435 378
c-6.66699 5.33301 -9.33398 11 -8.00098 17l-17 58l-17 67l-17 100h51h42h34h23h168h34h25h151h109h33h143h66h59l-25 -159l-9 -51l-8 -91l-17 -143l-9 -59c-2 -47.333 -7.66699 -86.333 -17 -117l-8 -108c-9.33301 -46.667 -14.333 -85.667 -15 -117v-25
c-12.667 -44 -18.334 -83 -17.001 -117l-17 -109l-9 -59c-2 -46 -7.66699 -85 -17 -117v-42l-8 -26l-9 -57l-16 -185h-58h-110h-32h-143h-25h-100h-142h-34h-42h-109h-34h-142h-25h-100v-159h25h34h142h24h102h116h26h40h26h34h25h168h142h66h59h109h34h142h66h59h92h42h109
h33h143h25h100v25v26v108h-42h-26h-32h-34h-34h-34h-142h-24h-101v51l8 24v25v26l17 108l9 51l8 59c3.33301 57.333 9 104.666 17 141.999v24l17 134l9 42l8 34v34v34c6.66699 20 9.33398 42 8.00098 66l9 17v25l15 126v25l9 41v25c6.66699 21.333 9.33398 44 8.00098 68
l17 91v43l9 25v32c7.33301 24 10 46.667 8 68c12.667 53.333 18.334 98 17.001 134l25 8h26h32h25h168v143v25v100h-68h-166v25v26c12.667 42.667 18.334 84.334 17.001 125.001h-34h-93h-40h-26h-34h-25h-168v-25z" />
    <glyph glyph-name="m" unicode="m" horiz-adv-x="3003" 
d="M258 1541l56.999 -0.000976562h48h37h28h191h37h29h172h123h37h162h29h115c-3.33301 -96.667 -0.666016 -175.334 8.00098 -236.001h-57h-47h-37h-29h-191h-37h-29h-172h-123h-37h-162h-29h-113v-324h37h29h191v-294c198 -643.333 615.667 -1001 1253 -1073l66 10
c65.333 -1.33301 122.333 8.33398 171 29.001v8v-8v8l10 19l10 20l-29 66h-28h-29h-76h-29h-66c-38 10 -72.667 16 -104 18c-497.333 266 -725.666 665 -684.999 1197h39h38h37h39h161h28h115c198 -307.333 470.333 -449.666 817 -426.999l47 29l-19 76
c-386.667 52.667 -573.334 346.667 -560.001 882h37h162h29h113v76v191h-76h-76h-189h-29h-28h-296h-65h-58h-65h-58h-47h-57h-39h-171h-104h-38h-38h-37h-39h-162h-27h-115v-267z" />
    <glyph glyph-name="n" unicode="n" horiz-adv-x="3003" 
d="M248 1618h37.001h39h29h37h170v-368h-37h-39h-29h-37h-170v-313h37h39h29h37h170v-1343h37h39h37h39h160h76h66v47v37v171v39v37v38v161v28v113c241.333 -356 550.666 -576.333 927.999 -661c49.333 -2 90.333 7 123 27c2 52 -14 93 -48 123
c-186.667 78.667 -335 189.667 -445 333c-176.667 274 -258.667 557.333 -246 850h57h37h171h104h37h39h37h39h160h29h113v39v37v28v39v170h-47h-160h-58h-47h-57h-38h-170h-104h-38h-38h-37h-38h-162h-28h-113v85v28v38v28v189h57h123h37h161h28h115h103h47h123h39h160h29
h113v29v123h-76h-76h-131h-29h-47h-29h-37h-29h-189h-162h-27h-114h-37h-29h-189h-39h-27h-170h-123h-39h-160h-29h-113v-152z" />
    <glyph glyph-name="o" unicode="o" horiz-adv-x="3003" 
d="M277 1635l157.002 -0.000976562h74h66h120h37h157h74h66h101h46h121h37h157h75h64v-491h-27h-37h-29h-36h-167h-121h-37h-157h-27h-112h-102h-46h-120h-37h-159h-27h-111v-305h157h74h66h120h37h157h74h66h101h46h121h37h157h75h64v-390l-9 -64
c-60.667 -222 -184.334 -376 -371.001 -462l-111 -29h-27l-27 -9h-29h-37h-27h-37h-167h-29h-165h-29h-287v-278h287h56h157h55h47h56h37h166h103h37h37h37h37h157h27h111l75 19l28 8c42.667 22.667 80 38.334 112 47.001l8 19c103.333 70.667 180.333 154 230.999 250v27
c22.667 42.667 35 83 37 121l11 46v37v47v120v37v157v28v112v157h74h64v157v28v120h-27h-111v37v37v167v37v27v186h74h64v157h-287h-29h-184h-65h-56h-64h-56h-66h-54h-65h-56h-157h-56h-45h-56h-37h-167h-103h-36h-37h-37h-37h-159h-27h-111v-157z" />
    <glyph glyph-name="p" unicode="p" horiz-adv-x="2994" 
d="M400 1393l18.002 -17.999l27 -9l18 -18l45 -36c47.333 -20.667 86 -44.334 116 -71.001l36 -27l117 -63l36 -36l36 -9l18 -18l152 -98c10.667 -6 16.667 -12 18 -18l27 -9l72 -54l27 -9l18 -9l18 -18c37.333 -16.667 67 -37.667 89 -63
c58.667 -25.333 103.667 -55 135 -89l-45 -27l-45 -36l-45 -27c-50.667 -28.667 -92.334 -55.667 -125.001 -81l-45 -18l-45 -36l-36 -27l-99 -53l-36 -36l-116 -63l-36 -36l-27 -9l-36 -18l-27 -27l-27 -9l-27 -27l-54 -35l-18 -9l-62 -36
c-49.333 -34.667 -88.333 -64.667 -117 -90h36h27h161h117h36h152h27h108c6 7.33301 12 10.333 18 9c6 10.667 12 16.667 18 18l117 81l45 18c40 37.333 78.667 64 116 80l45 27c16.667 13.333 31.667 22.333 45 27c16.667 13.333 31.667 22.333 45 27l27 27l54 36l44 18
l27 27l36 27l36 8c7.33301 9.33301 16.333 15.333 27 18c32.667 31.333 65.667 55.333 99 72l27 18l27 9c6 10.667 12 16.667 18 18l18 18l26 9c6 7.33301 12 10.333 18 9c55.333 44.667 103.333 77.667 143.999 99l-45 44l-54 27c-64 40.667 -114.667 76.667 -152 108
l-45 27l-18 9l-27 9c-32.667 30 -65.667 50.667 -99 62l-45 36l-18 9l-98 72l-36 18c-39.333 22.667 -69.333 43.667 -90 63l-27 9l-18 18l-36 18l-27 27l-27 9l-26 17l-18 9l-18 18c-64.667 33.333 -115.667 66.333 -153 99h-36h-27h-161h-117h-36h-152h-27h-108z" />
    <glyph glyph-name="q" unicode="q" horiz-adv-x="3003" 
d="M564 1300l-15.999 -103.001l-14 -100l-13 -87c-5.33301 -113.333 -15.333 -210.666 -30 -291.999c-3.33301 -79.333 -13.333 -147 -30 -203v-102l-13 -27l-30 -306h57h59h246h44h176v73l13 57l16 232c29.333 152 44 273 44 363l13 59c4 101.333 14 183.333 30 246v44v43
c12.667 39.333 17 78 13 116l17 103h-60h-73h-43h-57h-46h-289c-14.667 -39.333 -19.334 -78 -14.001 -116zM1405 1313v-56.999l-13 -29l-16 -233l-14 -86l-13 -73v-57l-17 -30v-43c-3.33301 -108.667 -12.333 -196.334 -27 -263.001c-8.66699 -149.333 -24 -270 -46 -362
h60h57h249h43h173l16 189l27 203v57l16 30l14 232l16 60v57l14 43v59c8.66699 45.333 13 84.333 13 117l30 289h-57h-73h-43h-60h-43h-289z" />
    <glyph glyph-name="r" unicode="r" horiz-adv-x="3003" 
d="M1385 1469l-41.998 -25l-25 -9c-58.667 -52.667 -114.334 -88.667 -167.001 -108c-44.667 -40 -86.334 -67.667 -125.001 -83c-34.667 -29.333 -70.667 -51.666 -108 -66.999c-28 -28 -53 -47.333 -75 -58l-34 -17l-16 -17l-92 -50
c-22 -20.667 -44.333 -34.334 -67 -41.001l-8 -17l-83 -42c-38 -36 -77 -61 -117 -75l8 -16l9 -17c44 -19.333 80 -41.666 108 -66.999c51.333 -27.333 93 -55 125 -83l42 -25c52.667 -28 94.334 -55.667 125.001 -83l108 -59l33 -33l25 -8l34 -25l33 -17l25 -17l17 -16
l25 -9c23.333 -19.333 42.666 -33 57.999 -41l33 -17l17 -17l25 -16c62.667 -34.667 112.667 -68 150 -100h25h25h25h109h25h83c132 -8.66699 240.333 -3.33398 325 15.999l-50 25l-42 34l-41 25l-50 25l-17 16c-46 22.667 -82 47.667 -108 75l-50 25l-34 17l-33 25l-33 25
l-42 25l-33 17l-25 25l-25 8l-25 25c-48.667 20.667 -87.667 45.667 -117 75l-25 17l-25 8l-17 8l-17 17l-183 117l42 33l125 83l25 9c37.333 36 76.333 61 117 75c31.333 33.333 64.666 55.333 99.999 66l33 25l33 17l34 25l33 25l33 17
c34.667 28.667 65.334 50.667 92.001 66l25 9l75 58l25 8l17 17l25 8l50 34c34.667 28.667 70.667 50.667 108 66c-10 10 -21 15.667 -33 17h-25h-150h-109h-33h-142h-25h-100zM351.002 -248h167h33h150h25h25h258h142h25h100h34h25h166h34h25h150h108h33h142h25h100v258
h-167h-33h-150h-25h-25h-258h-142h-25h-100h-34h-25h-166h-34h-25h-150h-108h-33h-142h-25h-100v-258z" />
    <glyph glyph-name="s" unicode="s" horiz-adv-x="3003" 
d="M887 975h42h114h52h134h42h176h83h73v115v51v29v42v32v207l-10 42h-41h-176h-115h-42h-176h-31h-125v-518zM887 -83h42h114h52h134h42h176h83h73v42v102v42v41v32v42v185l-10 42h-41h-176h-115h-42h-176h-31h-125v-528z" />
    <glyph glyph-name="t" unicode="t" horiz-adv-x="3003" 
d="M360 1374l-29.998 0.000976562h-39h-177v-324h40h29h197c46.667 -483.333 239.667 -856.666 579 -1120c390 -290.667 826.333 -376.334 1309 -257.001c19.333 38 25.666 71 18.999 99c-446.667 -22 -800.334 118.667 -1061 422
c-216 263.333 -317.667 548.666 -305 855.999h68h39h50h127h41h167h28h119h39h40h28h178h127h40h168h28h119v40v38v30v41v175h-69h-40h-48h-128h-40h-167h-29h-118h-39h-40h-30h-176h-129h-38h-168h-30h-117v99v40v39v30v39v177h-129h-39h-40h-38h-168h-30h-117v-424z" />
    <glyph glyph-name="u" unicode="u" horiz-adv-x="3003" 
d="M211 856l-8 -59l-8 -25l-34 -160h50h109h59h118h25h151h109h33h143h25h101l8 25l26 118l16 67l17 59h-50h-59h-50h-42h-51h-33h-151h-93h-33h-34h-33h-34h-142h-26h-100zM1369 856l-8 -59l-9 -25l-33 -160h50h109h59h118h25h151h109h33h143h25h101l8 25l25 118l17 67
l17 59h-50h-59h-50h-42h-51h-33h-151h-93h-33h-34h-33h-34h-142h-26h-100z" />
    <glyph glyph-name="v" unicode="v" horiz-adv-x="3003" 
d="M1143 844l23 -8l108 -23l62 -15l54 -16v46v55v46v38v47v31v139v84v31v31v31v31v131v23v93l-23 8l-54 7l-23 8l-147 31v-849zM1143 -221l23 -8l108 -23l62 -16l54 -15v46v54v47v38v47v30v139v85v31v31v31v31v131v23v93l-23 8l-54 7l-23 8l-147 31v-849z" />
    <glyph glyph-name="w" unicode="w" horiz-adv-x="3003" 
d="M103 -266h64h28h37h165h129h28h46h27h37h28h184h156h28h110h120h37h156h28h110h101h46h120h37h156h28h110h28h37h165v28v46v27v37v28v184h-119h-286h-128h-28h-46h-28h-36h-28h-184h-55h-46h-55h-28h-184h-120h-37h-165h-37h-37h-37h-156h-28h-110v36v37v156v28v110v56
v64v120v285v129v27v46v28v37v27v184h28h46h27h37h28h184h36h46h120h37h156h74h64h37h37h28h165h120h37h156h28h110v46v28v36v28v184h-74h-73h-129h-28h-46h-27h-37h-28h-184h-156h-28h-110h-120h-37h-156h-28h-110h-101h-46h-120h-37h-156h-28h-110v-2042z" />
    <glyph glyph-name="x" unicode="x" horiz-adv-x="3003" 
d="M410 -327h25h171h60h61h34h43h111h33h146h25h103h35h33h27h153h111h35h146h25h103h68h60v68v60v35v41v35v43v112v33v146v25v103v60v60v51v60v52v59v50v147v51v42v51v35v155v93v34v34v35v33v146v25v103h-25h-26h-112h-60h-59h-25h-27h-264h-60h-51h-60h-52h-43h-51h-35
h-153h-95h-33h-35h-35h-33h-146h-25h-103v-2077zM880 1519h120h26h153h111h35h145h26h103v-693h-59h-120h-27h-154h-110h-35h-146h-25h-103v35v155v93v35v33v35v35v144v25v103h60zM880 597h120h26h153h111h35h145h26h103v-693h-59h-120h-27h-154h-110h-35h-146h-25h-103v33
v155v94v34v35v33v35v144v27v103h60z" />
    <glyph glyph-name="y" unicode="y" horiz-adv-x="3003" 
d="M957 1572l-91.0029 -0.00195312h-41h-109h-33h-141h-24h-100v-375h91h42h108h33h141h67h57v-1321h-32h-33h-151l-8 57v35c8.66699 22 11.334 44 8.00098 66c13.333 52 19.333 96 18 132c10.667 42 16 78.333 16 109l17 141l16 108v33l8 25v34c8 22 11 44 9 66
c16 86.667 24 156 24 208h-108h-33h-141h-25h-100l-16 -91c-1.33301 -44 -7 -83 -17 -117v-58c-9.33301 -45.333 -14.666 -84 -15.999 -116l-34 -258v-24c-6.66699 -22 -9.66699 -44.667 -9 -68c-12.667 -51.333 -18 -95.666 -16 -132.999l-8 -24v-25l-9 -59
c-9.33301 -71.333 -12 -129.333 -8 -174c6.66699 -5.33301 9.33398 -10.666 8.00098 -15.999c23.333 -22 40 -42 50 -60l59 -16h92h33h32h33h35h141h65h59h50h141h67h58h108h34h141h66h59h90h43h108h33h141h25h100v33v24v168h-258h-116h-25h-42h-25h-33h-24h-168v57v51v141
v25v100v109v32v142v24v100v92v41v109v32v142v26v98h35h141h92h32h142h67h57v68v24v25v258h-33h-141h-92h-32h-143h-25h-100v67v25v108h-41h-92h-33h-32h-33h-35h-141h-24h-101v-200zM2131 -108.002c22.667 20 36.333 45.333 41 76c-261.333 246 -367 553.333 -317 922h-33
h-24h-41h-27h-32h-25h-166c14.667 -517.333 222.667 -850 624 -998z" />
    <glyph glyph-name="z" unicode="z" horiz-adv-x="3003" 
d="M296 1587l58 -0.00292969h25h25h256h57h49h60h49h40h51h32h149h91h34h32h34h32h141h66h59l-8 -25c-40.667 -36 -71.334 -71.667 -92.001 -107l-49 -42c-34.667 -53.333 -65 -94.666 -91 -123.999l-26 -17l-23 -23l-9 -26l-17 -17l-17 -17l-40 -40
c-28 -47.333 -58.333 -83.666 -91 -108.999l-34 -40c-6 -9.33301 -11.333 -15 -16 -17l-16 -24l-83 -100c-38.667 -47.333 -72 -83.333 -100 -108l-58 -83l-17 -15c-28 -32.667 -52.667 -57.667 -74 -75l-15 -33l-26 -33l-34 -33l-15 -26l-25 -15l-26 -42l-32 -24
c-16.667 -28 -33.334 -50.667 -50.001 -68l-16 -23l-17 -17l-25 -17l-8 -24l-24 -17l-9 -17l-42 -40c-29.333 -50 -62 -89 -98 -117v-430h164h68h115h25h41h25h32h26h166h140h24h99h109h32h140h66h58h91h43h106h34h140h24h100v25v33v148h-58h-25h-25h-256h-57h-49h-60h-49
h-40h-51h-32h-149h-92h-33h-32h-34h-32h-141h-25h-100l8 26c40.667 36 71.334 71.333 92.001 106l49 43c34.667 52.667 65 93.667 91 123l26 17l23 26l9 23l17 17l17 17l40 41c28 47.333 58.333 83.333 91 108l34 41c6 8.66699 11.333 14.334 16 17.001l16 25l83 98
c38.667 48.667 72 84.667 100 108l58 83l17 16c28 33.333 52.667 58 74 74l15 34l26 34l34 32l15 25l25 17l26 41l32 25c16.667 27.333 33.334 49.333 50.001 66l16 24l17 17l25 17l8 25l24 15l9 17l42 43c29.333 48 62 86.333 98 115v91v32v26v40v26v33v24v166h-164h-68
h-115h-25h-41h-25h-32h-26h-166h-140h-24h-100h-108h-32h-140h-26h-98h-91h-43h-106h-34h-140h-24h-100v-215z" />
    <glyph glyph-name="braceleft" unicode="{" 
 />
    <glyph glyph-name="bar" unicode="|" 
 />
    <glyph glyph-name="braceright" unicode="}" 
 />
    <glyph glyph-name="asciitilde" unicode="~" 
 />
    <glyph glyph-name="Adieresis" 
 />
    <glyph glyph-name="Aring" 
 />
    <glyph glyph-name="Ccedilla" 
 />
    <glyph glyph-name="Eacute" 
 />
    <glyph glyph-name="Ntilde" 
 />
    <glyph glyph-name="Odieresis" unicode="&#x85;" 
 />
    <glyph glyph-name="Udieresis" 
 />
    <glyph glyph-name="aacute" 
 />
    <glyph glyph-name="agrave" 
 />
    <glyph glyph-name="acircumflex" 
 />
    <glyph glyph-name="adieresis" 
 />
    <glyph glyph-name="atilde" 
 />
    <glyph glyph-name="aring" 
 />
    <glyph glyph-name="ccedilla" 
 />
    <glyph glyph-name="eacute" 
 />
    <glyph glyph-name="egrave" 
 />
    <glyph glyph-name="ecircumflex" 
 />
    <glyph glyph-name="edieresis" 
 />
    <glyph glyph-name="iacute" 
 />
    <glyph glyph-name="igrave" 
 />
    <glyph glyph-name="icircumflex" 
 />
    <glyph glyph-name="idieresis" 
 />
    <glyph glyph-name="ntilde" 
 />
    <glyph glyph-name="oacute" 
 />
    <glyph glyph-name="ograve" 
 />
    <glyph glyph-name="ocircumflex" 
 />
    <glyph glyph-name="odieresis" 
 />
    <glyph glyph-name="otilde" 
 />
    <glyph glyph-name="uacute" 
 />
    <glyph glyph-name="ugrave" 
 />
    <glyph glyph-name="ucircumflex" 
 />
    <glyph glyph-name="udieresis" 
 />
    <glyph glyph-name="dagger" unicode="&#xa0;" 
 />
    <glyph glyph-name="dagger" unicode="&#x2020;" 
 />
    <glyph glyph-name="degree" 
 />
    <glyph glyph-name="cent" unicode="&#xa2;" 
 />
    <glyph glyph-name="sterling" unicode="&#xa3;" 
 />
    <glyph glyph-name="section" unicode="&#xa4;" 
 />
    <glyph glyph-name="bullet" unicode="&#x2022;" 
 />
    <glyph glyph-name="paragraph" unicode="&#xa6;" 
 />
    <glyph glyph-name="germandbls" unicode="&#xa7;" 
 />
    <glyph glyph-name="registered" 
 />
    <glyph glyph-name="copyright" unicode="&#xa9;" 
 />
    <glyph glyph-name="trademark" unicode="&#x2122;" 
 />
    <glyph glyph-name="acute" 
 />
    <glyph glyph-name="dieresis" unicode="&#xa8;" 
 />
    <glyph glyph-name="notequal" unicode="&#xad;" 
 />
    <glyph glyph-name="notequal" unicode="&#x2260;" 
 />
    <glyph glyph-name="AE" unicode="&#xae;" 
 />
    <glyph glyph-name="Oslash" 
 />
    <glyph glyph-name="infinity" unicode="&#xb0;" 
 />
    <glyph glyph-name="infinity" unicode="&#x221e;" 
 />
    <glyph glyph-name="plusminus" unicode="&#xb1;" 
 />
    <glyph glyph-name="lessequal" unicode="&#xb2;" 
 />
    <glyph glyph-name="lessequal" unicode="&#x2264;" 
 />
    <glyph glyph-name="greaterequal" unicode="&#xb3;" 
 />
    <glyph glyph-name="greaterequal" unicode="&#x2265;" 
 />
    <glyph glyph-name="yen" unicode="&#xa5;" 
 />
    <glyph glyph-name="yen" unicode="&#xb4;" 
 />
    <glyph glyph-name="mu" unicode="&#xb5;" 
 />
    <glyph glyph-name="partialdiff" unicode="&#xb6;" 
 />
    <glyph glyph-name="partialdiff" unicode="&#x2202;" 
 />
    <glyph glyph-name="summation" unicode="&#x2211;" 
 />
    <glyph glyph-name="product" unicode="&#x220f;" 
 />
    <glyph glyph-name="pi" unicode="&#xb9;" 
 />
    <glyph glyph-name="pi" unicode="&#x3c0;" 
 />
    <glyph glyph-name="integral" unicode="&#x222b;" 
 />
    <glyph glyph-name="ordfeminine" unicode="&#xaa;" 
 />
    <glyph glyph-name="ordmasculine" unicode="&#xba;" 
 />
    <glyph glyph-name="ordmasculine" unicode="&#xbc;" 
 />
    <glyph glyph-name="ohm" unicode="&#xbd;" 
 />
    <glyph glyph-name="ohm" unicode="&#x3a9;" 
 />
    <glyph glyph-name="ae" unicode="&#xbe;" 
 />
    <glyph glyph-name="oslash" 
 />
    <glyph glyph-name="questiondown" unicode="&#xbf;" 
 />
    <glyph glyph-name="exclamdown" unicode="&#xa1;" 
 />
    <glyph glyph-name="logicalnot" unicode="&#xac;" 
 />
    <glyph glyph-name="radical" unicode="&#x221a;" 
 />
    <glyph glyph-name="florin" unicode="&#xc4;" 
 />
    <glyph glyph-name="florin" unicode="&#x192;" 
 />
    <glyph glyph-name="approxequal" unicode="&#xc5;" 
 />
    <glyph glyph-name="approxequal" unicode="&#x2248;" 
 />
    <glyph glyph-name="Delta" unicode="&#xc6;" 
 />
    <glyph glyph-name="Delta" unicode="&#x394;" 
 />
    <glyph glyph-name="guillemotleft" unicode="&#xab;" 
 />
    <glyph glyph-name="guillemotleft" unicode="&#xc7;" 
 />
    <glyph glyph-name="guillemotright" unicode="&#xbb;" 
 />
    <glyph glyph-name="ellipsis" unicode="&#xc9;" 
 />
    <glyph glyph-name="ellipsis" unicode="&#x2026;" 
 />
    <glyph glyph-name="Agrave" unicode="&#xc0;" 
 />
    <glyph glyph-name="Atilde" unicode="&#xc3;" 
 />
    <glyph glyph-name="Otilde" 
 />
    <glyph glyph-name="OE" unicode="&#x152;" 
 />
    <glyph glyph-name="oe" unicode="&#x153;" 
 />
    <glyph glyph-name="endash" unicode="&#xd0;" 
 />
    <glyph glyph-name="endash" unicode="&#x2013;" 
 />
    <glyph glyph-name="emdash" unicode="&#xd1;" 
 />
    <glyph glyph-name="emdash" unicode="&#x2014;" 
 />
    <glyph glyph-name="quotedblleft" unicode="&#x201c;" 
 />
    <glyph glyph-name="quotedblright" unicode="&#x201d;" 
 />
    <glyph glyph-name="quoteleft" unicode="&#x2018;" 
 />
    <glyph glyph-name="quoteright" unicode="&#xd5;" 
 />
    <glyph glyph-name="quoteright" unicode="&#x2019;" 
 />
    <glyph glyph-name="divide" unicode="&#xd6;" 
 />
    <glyph glyph-name="lozenge" unicode="&#xd7;" 
 />
    <glyph glyph-name="lozenge" unicode="&#x25ca;" 
 />
    <glyph glyph-name="ydieresis" unicode="&#xd8;" 
 />
    <glyph glyph-name="Ydieresis" unicode="&#x178;" 
 />
    <glyph glyph-name="fraction" unicode="&#x2044;" 
 />
    <glyph glyph-name="currency" unicode="&#x20ac;" 
 />
    <glyph glyph-name="guilsinglleft" unicode="&#xdc;" 
 />
    <glyph glyph-name="guilsinglleft" unicode="&#x2039;" 
 />
    <glyph glyph-name="guilsinglright" unicode="&#xdd;" 
 />
    <glyph glyph-name="guilsinglright" unicode="&#x203a;" 
 />
    <glyph glyph-name="fi" unicode="&#xde;" 
 />
    <glyph glyph-name="fi" unicode="&#xfb01;" 
 />
    <glyph glyph-name="fl" unicode="&#xdf;" 
 />
    <glyph glyph-name="fl" unicode="&#xfb02;" 
 />
    <glyph glyph-name="daggerdbl" unicode="&#xe0;" 
 />
    <glyph glyph-name="daggerdbl" unicode="&#x2021;" 
 />
    <glyph glyph-name="periodcentered" unicode="&#xb7;" 
 />
    <glyph glyph-name="periodcentered" unicode="&#xe1;" 
 />
    <glyph glyph-name="quotesinglbase" unicode="&#xe2;" 
 />
    <glyph glyph-name="quotesinglbase" unicode="&#x201a;" 
 />
    <glyph glyph-name="quotedblbase" unicode="&#xe3;" 
 />
    <glyph glyph-name="quotedblbase" unicode="&#x201e;" 
 />
    <glyph glyph-name="perthousand" unicode="&#xe4;" 
 />
    <glyph glyph-name="perthousand" unicode="&#x2030;" 
 />
    <glyph glyph-name="Acircumflex" unicode="&#xc2;" 
 />
    <glyph glyph-name="Acircumflex" unicode="&#xe5;" 
 />
    <glyph glyph-name="Ecircumflex" unicode="&#xca;" 
 />
    <glyph glyph-name="Ecircumflex" unicode="&#xe6;" 
 />
    <glyph glyph-name="Aacute" unicode="&#xc1;" 
 />
    <glyph glyph-name="Aacute" unicode="&#xe7;" 
 />
    <glyph glyph-name="Edieresis" unicode="&#xcb;" 
 />
    <glyph glyph-name="Edieresis" unicode="&#xe8;" 
 />
    <glyph glyph-name="Egrave" unicode="&#xc8;" 
 />
    <glyph glyph-name="Egrave" unicode="&#xe9;" 
 />
    <glyph glyph-name="Iacute" unicode="&#xcd;" 
 />
    <glyph glyph-name="Iacute" unicode="&#xea;" 
 />
    <glyph glyph-name="Icircumflex" unicode="&#xce;" 
 />
    <glyph glyph-name="Icircumflex" unicode="&#xeb;" 
 />
    <glyph glyph-name="Idieresis" unicode="&#xcf;" 
 />
    <glyph glyph-name="Idieresis" unicode="&#xec;" 
 />
    <glyph glyph-name="Igrave" unicode="&#xcc;" 
 />
    <glyph glyph-name="Igrave" unicode="&#xed;" 
 />
    <glyph glyph-name="Oacute" unicode="&#xd3;" 
 />
    <glyph glyph-name="Oacute" unicode="&#xee;" 
 />
    <glyph glyph-name="Ocircumflex" unicode="&#xd4;" 
 />
    <glyph glyph-name="Ocircumflex" unicode="&#xef;" 
 />
    <glyph glyph-name="apple" unicode="&#xf0;" 
 />
    <glyph glyph-name="apple" unicode="&#xe01e;" 
 />
    <glyph glyph-name="Ograve" unicode="&#xd2;" 
 />
    <glyph glyph-name="Ograve" unicode="&#xf1;" 
 />
    <glyph glyph-name="Uacute" unicode="&#xda;" 
 />
    <glyph glyph-name="Uacute" unicode="&#xf2;" 
 />
    <glyph glyph-name="Ucircumflex" unicode="&#xdb;" 
 />
    <glyph glyph-name="Ucircumflex" unicode="&#xf3;" 
 />
    <glyph glyph-name="Ugrave" unicode="&#xd9;" 
 />
    <glyph glyph-name="Ugrave" unicode="&#xf4;" 
 />
    <glyph glyph-name="dotlessi" unicode="&#xf5;" 
 />
    <glyph glyph-name="dotlessi" unicode="&#x131;" 
 />
    <glyph glyph-name="circumflex" unicode="&#xf6;" 
 />
    <glyph glyph-name="circumflex" unicode="&#x2c6;" 
 />
    <glyph glyph-name="tilde" unicode="&#xf7;" 
 />
    <glyph glyph-name="tilde" unicode="&#x2dc;" 
 />
    <glyph glyph-name="macron" unicode="&#xaf;" 
 />
    <glyph glyph-name="macron" unicode="&#xf8;" 
 />
    <glyph glyph-name="breve" unicode="&#xf9;" 
 />
    <glyph glyph-name="breve" unicode="&#x2d8;" 
 />
    <glyph glyph-name="dotaccent" unicode="&#xfa;" 
 />
    <glyph glyph-name="dotaccent" unicode="&#x2d9;" 
 />
    <glyph glyph-name="ring" unicode="&#xfb;" 
 />
    <glyph glyph-name="ring" unicode="&#x2da;" 
 />
    <glyph glyph-name="cedilla" unicode="&#xb8;" 
 />
    <glyph glyph-name="cedilla" unicode="&#xfc;" 
 />
    <glyph glyph-name="hungarumlaut" unicode="&#xfd;" 
 />
    <glyph glyph-name="hungarumlaut" unicode="&#x2dd;" 
 />
    <glyph glyph-name="ogonek" unicode="&#xfe;" 
 />
    <glyph glyph-name="ogonek" unicode="&#x2db;" 
 />
    <glyph glyph-name="caron" unicode="&#xff;" 
 />
    <glyph glyph-name="caron" unicode="&#x2c7;" 
 />
    <glyph glyph-name="nonbreakingspace" 
 />
  </font>
</defs>
</svg>
